有势欠运打平加时 B费点球曼联过关

曼联 1 : 0 哥本哈根


2020-08-17 03:00(周一晨) 欧联半决赛

曼联 VS 塞维利亚

您是游客(或未登录会员)

免费注册(或登录社区

您的IP:3.226.245.48

版块:下载特区

管理员:Kenny, 巴夫A

非官方曼联中文网 论坛列表 >> 下载特区


主题标题: >> 求 03年曼联VS皇马冠军杯

      

Red·seven

主力队员

注册日期:

2003-11-11

最近登录日期

2020-08-14 17:23

帖数:844

最近发帖列表

樘白山倪下

日期:2020-07-28 16:32     |    仅看该会员    隐藏该会员
4:3的那一场




      

zhenhuan

管理小组组长

注册日期:

2000-08-28

最近登录日期

2020-08-15 11:21

帖数:17639

最近发帖列表

广州市

日期:2020-07-29 02:06     |    仅看该会员    隐藏该会员
现有全场录像(俄语),视频格式数据如下,如合适我就上传到百度网盘。

[02-03欧冠]曼联VS皇马\1st half.mpg
Format : MPEG-PS
File size : 985 MiB
Duration : 50 min 30 s
Overall bit rate : 2 727 kb/s

Video
ID : 224 (0xE0)
Format : MPEG Video
Format version : Version 2
Format profile : Main@Main
Bit rate : 2 481 kb/s
Maximum bit rate : 15.0 Mb/s
Width : 704 pixels
Height : 576 pixels
Display aspect ratio : 4:3
Frame rate : 25.000 FPS
Standard : PAL
Color space : YUV
Chroma subsampling : 4:2:0
Bit depth : 8 bits
Stream size : 896 MiB (91%)

Audio
Format : MPEG Audio
Format version : Version 1
Format profile : Layer 2
Duration : 50 min 30 s
Bit rate : 192 kb/s
Channel(s) : 2 channels
Sampling rate : 48.0 kHz
Frame rate : 41.667 FPS (1152 SPF)
Stream size : 69.4 MiB (7%)


[02-03欧冠]曼联VS皇马\2nd half.mpg
Format : MPEG-PS
File size : 1.05 GiB
Duration : 50 min 14 s
Overall bit rate : 3 005 kb/s

Video
ID : 224 (0xE0)
Format : MPEG Video
Format version : Version 2
Format profile : Main@Main
Duration : 50 min 14 s
Bit rate : 2 753 kb/s
Maximum bit rate : 15.0 Mb/s
Width : 704 pixels
Height : 576 pixels
Display aspect ratio : 4:3
Frame rate : 25.000 FPS
Standard : PAL
Color space : YUV
Chroma subsampling : 4:2:0
Bit depth : 8 bits
Stream size : 990 MiB (92%)

Audio
Format : MPEG Audio
Format version : Version 1
Format profile : Layer 2
Duration : 50 min 14 s
Bit rate : 192 kb/s
Channel(s) : 2 channels
Sampling rate : 48.0 kHz
Frame rate : 41.667 FPS (1152 SPF)
Stream size : 69.0 MiB (6%)


曼联球迷 & 电脑爱好者
孙子兵法研修中.....《装B的孩子》篇



点赞会员(1):Red·seven ;    

       

agesier

项目管理员

注册日期:

2004-12-23

最近登录日期

2020-08-15 17:26

帖数:3231

最近发帖列表

石家庄

日期:2020-07-29 09:59     |    仅看该会员    隐藏该会员
https://m.bilibili.com/video/BV1Kf4y1U7Cz
b站有好几个语言版本的,清晰度很高,可以找工具下载下来



不论我在哪里 都只离你一个转身的距离



点赞会员(1):Red·seven ;    

      

Red·seven

主力队员

注册日期:

2003-11-11

最近登录日期

2020-08-14 17:23

帖数:844

最近发帖列表

樘白山倪下

日期:2020-07-29 10:05     |    仅看该会员    隐藏该会员
点击关闭引用帖:
2020-07-29 02:06, zhenhuan 发表:

现有全场录像(俄语),视频格式数据如下,如合适我就上传到百度网盘。

[02-03欧冠]曼联VS皇马\1st half.mpg
Format : MPEG-PS
File size : 985 MiB
Duration : 50 min 30 s
Overall bit rate : 2 727 kb/s

Video
ID : 224 (0xE0)
Format : MPEG Video
Format version : Version 2
Format profile : Main@Main
Bit rate : 2 481 kb/s
Maximum bit rate : 15.0 Mb/s
Width : 704 pixels
Height : 576 pixels
Display aspect ratio : 4:3
Frame rate : 25.000 FPS
Standard : PAL
Color space : YUV
Chroma subsampling : 4:2:0
Bit depth : 8 bits
Stream size : 896 MiB (91%)

Audio
Format : MPEG Audio
Format version : Version 1
Format profile : Layer 2
Duration : 50 min 30 s
Bit rate : 192 kb/s
Channel(s) : 2 channels
Sampling rate : 48.0 kHz
Frame rate : 41.667 FPS (1152 SPF)
Stream size : 69.4 MiB (7%)


[02-03欧冠]曼联VS皇马\2nd half.mpg
Format : MPEG-PS
File size : 1.05 GiB
Duration : 50 min 14 s
Overall bit rate : 3 005 kb/s

Video
ID : 224 (0xE0)
Format : MPEG Video
Format version : Version 2
Format profile : Main@Main
Duration : 50 min 14 s
Bit rate : 2 753 kb/s
Maximum bit rate : 15.0 Mb/s
Width : 704 pixels
Height : 576 pixels
Display aspect ratio : 4:3
Frame rate : 25.000 FPS
Standard : PAL
Color space : YUV
Chroma subsampling : 4:2:0
Bit depth : 8 bits
Stream size : 990 MiB (92%)

Audio
Format : MPEG Audio
Format version : Version 1
Format profile : Layer 2
Duration : 50 min 14 s
Bit rate : 192 kb/s
Channel(s) : 2 channels
Sampling rate : 48.0 kHz
Frame rate : 41.667 FPS (1152 SPF)
Stream size : 69.0 MiB (6%)




多谢大叔,请上传好吗?拜托了~!




      

Red·seven

主力队员

注册日期:

2003-11-11

最近登录日期

2020-08-14 17:23

帖数:844

最近发帖列表

樘白山倪下

日期:2020-07-29 10:21     |    仅看该会员    隐藏该会员



非常感谢~!当年看的集锦是热血澎湃。后来多次看了全场录像。
最近突然看到流传的集锦好想再看看,找不到全场录像了呢~
真是很感谢~!




      

agesier

项目管理员

注册日期:

2004-12-23

最近登录日期

2020-08-15 17:26

帖数:3231

最近发帖列表

石家庄

日期:2020-07-29 10:29     |    仅看该会员    隐藏该会员
点击展开引用帖:
2020-07-29 09:59, agesier 发表

点击关闭引用帖:
2020-07-29 10:21, Red·seven 发表:
非常感谢~!当年看的集锦是热血澎湃。后来多次看了全场录像。
最近突然看到流传的集锦好想再看看,找不到全场录像了呢~
真是很感谢~!




http://www.xsmnews.com/matchdown/2020/0502/1117748.html
这个网址,有个英语版本 百度网盘,5个多g,应该也不错


不论我在哪里 都只离你一个转身的距离



点赞会员(1):Red·seven ;    

      

Red·seven

主力队员

注册日期:

2003-11-11

最近登录日期

2020-08-14 17:23

帖数:844

最近发帖列表

樘白山倪下

日期:2020-07-29 15:53     |    仅看该会员    隐藏该会员
点击展开引用帖:
2020-07-29 09:59, agesier 发表

点击展开引用帖:
2020-07-29 10:21, Red·seven 发表

点击关闭引用帖:
2020-07-29 10:29, agesier 发表:
http://www.xsmnews.com/matchdown/2020/0502/1117748.html
这个网址,有个英语版本 百度网盘,5个多g,应该也不错




再次深表感谢,收到了~!




      

情謎大話囝

主力队员

注册日期:

2004-11-05

最近登录日期

2020-08-15 09:09

帖数:3487

最近发帖列表

广东

日期:2020-08-01 11:12     |    仅看该会员    隐藏该会员
当时高考阶段,深夜起床看。很回味的。


So:I Love You Forever! `````


       

zhenhuan

管理小组组长

注册日期:

2000-08-28

最近登录日期

2020-08-15 11:21

帖数:17639

最近发帖列表

广州市

日期:2020-08-03 02:43     |    仅看该会员    隐藏该会员
点击展开引用帖:
2020-07-29 02:06, zhenhuan 发表

点击关闭引用帖:
2020-07-29 10:05, Red·seven 发表:
多谢大叔,请上传好吗?拜托了~!




链接:https://pan.baidu.com/s/1mgtUTfQo_LT81UoFFlswYw
提取码:j8jk


曼联球迷 & 电脑爱好者
孙子兵法研修中.....《装B的孩子》篇



点赞会员(1):Red·seven ;    

       
[ 回到页顶 ]    

      

跳转到:





关于本站 | 服务条款 | 版权声明 | 免责条款 | 联系我们




Pageview since
Server upgraded at 2004,1,10


会员个人照片展示

查看全部提交的照片


会员咆哮的耗子
提交的相片

点击查看详情

7777777777777777777777777777777777777best

最新视频
调查

预测曼联2019-20赛季的英超排名

肯定进入前四名

排在五至六名

排名不进前六名

不好预测



[ 结果 | 其他投票 ]

最新图片

2020-02-24 11:36:10

2020-02-24 11:17:36
友情链接





(排名不分先后)
谢绝
非曼联相关网站
非SSL网站